Окт 23

Журнал Hard & Soft №10 октябрь 2009

Название: Журнал Hard & Soft №10 октябрь 2009
Издательство: Union Publisher
Год: 2009
Месяц: 10 (октябрь)
Страниц: 85
Формат: djvu
Размер: 6.31 Мb
Качество: нормальное в цвете
Язык: русский
Читать запись полностью »

Автор: geka \\ Метки:

Окт 22

Журнал Хакер №10 (130) октябрь 2009

Название: Журнал Хакер №10 (130) октябрь 2009
Издательство: ООО»Гейм Лэнд»
Год: 2009
Месяц: №10 (130) октябрь
формат: pdf
Страниц: 132
Качество: отличное в цвете
Размер: 56.47 Мб
Читать запись полностью »

Автор: geka \\ Метки:

Окт 20

Журнал Системный администратор №10 (83) октябрь

Название: Журнал Системный администратор №10 (83) октябрь 2009
Год: 2009
Месяц: 10 (октябрь)
формат: pdf
Страниц: 98
Качество: отличное в цвете
Размер: Размер: 11.13 Мб
Язык: русский

Содержание:
Linux Live CD. Создаем загружаемый диск
Веб-топ-решение на основе Ulteo Virtual Desktop
Вячеслав Калошин: «Всегда ищи точки приложения своих сил!»
Windows Server 2008 R2
До часа «Х» — меньше 100 дней. Что делать с персональными данными?
SOA: плюсы и минусы. Готовы ли компании к сервисно-ориентированной архитектуре?
Live Migration. Что нужно для ее использования?
Мониторинг состояния температурных датчиков с помощью протокола SNMP
SOA. Взгляд шире!
Практический инсайд
Dr.Web для Mac OS X
Лидер всегда щедр. За что конкуренты любили Sun?
Библиотека стандартных подсистем. Обсуждаем плюсы и минусы новшества
Фирма «1С» объявила о выпуске ознакомительной версии инструментария для разработчика «1С:Библиотека стандартных подсистем 8.2». Попробуем вникнуть в суть новинки.
Это не панацея от бед!
Контроль трафика. Прослушиваем и просматриваем вместе с BWMeter
Алексей Барабанов: «Кто «хозяин» компьютеров? Сисадмин!»
OSSEC-HIDS. Установка и настройка
Open Web Tools Directory
DBMS_SHEDULER Запуск последовательных и зависимых заданий.
Основные грани Ruby
Язык Python. Дополнительные типы коллекций

Читать запись полностью »

Автор: removedwork \\ Метки:

Окт 18

Видеокурс «Создание профессионального сайта на cms joomla 2009» созданный Александром Боровым показывает и рассказывает, как самому создать тематический портал под управлением Joomla CMS. Видеокурс рассчитан на новичков, которые не знакомы с процессом создания сайтов, но хотят научиться создавать красивейшие сайты и зарабатывать на них деньги или просто иметь свою личную страничку в  интернета.

О видеокурсе «Создание профессионального сайта на cms joomla 2009«:
Видеокурс содержит семь видео уроков, плюс бонусный видеоурок по раскрутке сайта и созданию эффективных материалов в Joomla:
1. Вводный видеоурок.
2. Установка Joomla.
3. Разделы, категории, материалы.
4. Создание меню.
5. Компоненты, модули, плагины.
6. Шаблоны, настройки, инструменты.
7. Закачка сайта Joomla на хостинг.
8. Бонусный видео урок по раскрутке сайта и созданию эффективных материалов в Joomla.

Видео материал представлен в отличном визуальном (видео) и в информационно-познавательном качестве. Как уже говорилось выше этот видеокурс joomla является бесценным для начинающих web мастеров и дизайнеров.

Название: Видеокурс «Создание профессионального сайта на cms joomla»
Автор: Александр Боровой
Год выпуска: 2009
Язык: русский
Размер: 195.29 Мб
Видео кодек: Windows Media
Видео: Format: VC-1, Format profile: MP@ML, Codec ID: WMV3, Codec ID/Info: Windows Media Video 9, Codec ID/Hint: WMV3, Duration: 14mn 5s, Bit rate mode: Variable, Bit rate: 111 Kbps, Width: 640 pixels, Height: 480 pixels, Display aspect ratio: 4/3, Frame rate: 15.000 fps, Resolution: 24 bits, Scan type: Progressive, Bits/(Pixel*Frame): 0.024, Stream size: 11.2 MiB (64%)
Аудио: Format: WMA2, Format profile: L2, Codec ID: 161, Codec ID/Info: Windows Media Audio 2, Description of the codec: Windows Media Audio 9.2 — 48 kbps, 44 kHz, mono (A/V) 1-pass, CBR Duration: 14mn 5s, Bit rate mode: Constant, Bit rate: 48.0 Kbps, Channel(s): 1 channel, Sampling rate: 44.1 KHz, Resolution: 16 bits, Stream size: 4.84 MiB (28%)

Читать запись полностью »

Автор: removedwork \\ Метки:

Окт 18

ВЭД: бухгалтерский и налоговый учет в подробностях

В книге «ВЭД: бухгалтерский и налоговый учет в подробностях» подробно рассматриваются особенности бухгалтерского учета и налогообложения в такой специфической области деятельности предприятий, как внешнеэкономическая. В книге приводится большое количество практических примеров и ситуаций, благодаря которым обеспечивается эффективное усвоение материала. Издание не ограничивается материалами касающимися только экспортно-импортных операций, но и охватывает широкое количество вопросов касательно правил ведения учета субъектами внешнеэкономической деятельности, включая учет операций в иностранных валютах.

Название: ВЭД: бухгалтерский и налоговый учет в подробностях
Автор: Т. Войтенко
Издательство: «Фактор»
Год: 2008
Страниц: 400
ISBN: 978-966-312-578-7
Язык: Русский
Качество: нормальное
Формат: djvu
Размер: 9.4 Мб

Читать запись полностью »

Автор: conquer2032 \\ Метки:

Rambler's Top100